#TITLE:Madoromi no Rakuen;
#SUBTITLE:- Kyoshiro to Towa no Sora Ending;
#ARTIST:Ceui;
#TITLETRANSLIT:;
#SUBTITLETRANSLIT:;
#ARTISTTRANSLIT:;
#CREDIT:Jubo;
#BANNER:Kyoshiro to Towa no Sora ED-BN.avi;
#BACKGROUND:Kyoshiro to Towa no Sora ED-BG1.jpg;
#LYRICSPATH:Kyoshiro to Towa no Sora ED.lrc;
#CDTITLE:Jubo.png;
#MUSIC:Kyoshiro to Towa no Sora ED.mp3;
#OFFSET:1.701;
#SAMPLESTART:54.935;
#SAMPLELENGTH:27.400;
#SELECTABLE:YES;
#BPMS:0.000=106.000;
#STOPS:;
#BGCHANGES:3.000=Kyoshiro to Towa no Sora ED.avi=1.000=1=0=0,
160.500=Kyoshiro to Towa no Sora ED-BG2.jpg=1.000=1=0=0,
99999=-nosongbg-=1.000=0=0=0 // don't automatically add -songbackground-
;
// cache tags:
#FIRSTBEAT:3.000;
#LASTBEAT:162.000;
#SONGFILENAME:songs/Otaku's Dream 3rd Anime Mix/[Jubo] Madoromi no Rakuen - Kyoshiro to Towa no Sora ED/Kyoshiro to Towa no Sora ED.sm;
#HASMUSIC:1;
#HASBANNER:1;
#MUSICLENGTH:89.907;
// end cache tags

//---------------dance-single - ----------------
#NOTES:
     dance-single:
     :
     Hard:
     7:
     0.440,0.427,0.067,0.567,0.184,220.000,6.000,51.000,0.000,0.000:
0000
0000
0000
0000
,
1000
0000
0000
0001
0000
0000
0100
0000
0000
0000
0000
0000
0010
0000
1000
0001
,
1000
0000
0000
0001
0000
0000
1000
0000
0001
0000
0000
0100
0000
0000
0010
0000
,
2000
0000
3000
0000
0010
1000
0001
0200
,
0000
0000
0000
0300
0000
0000
0110
0000
0000
0000
0100
0000
1000
0000
0001
0000
,
0010
0000
0000
0100
0000
0000
0020
0000
0000
0000
0030
0000
0000
0000
0001
0000
,
1000
0000
0000
1000
0000
0000
0010
0000
0100
0000
0000
0100
0000
0000
0001
0000
,
0010
0000
0000
0010
0000
0000
0001
0000
0000
0000
0001
0000
1000
0000
0000
0000
,
0001
0000
0000
0001
0000
0000
1000
0000
0000
0000
1000
0000
0001
0000
0100
0000
,
0010
0000
0000
1000
0000
0000
0200
0000
0000
0000
0300
0000
0000
0000
0010
0100
,
0010
0000
0000
0100
0000
0000
1000
0000
0001
0000
0000
0100
0000
0000
0100
0000
,
0020
0000
0000
0000
0200
0330
0000
0000
0100
0000
0001
0000
1000
0000
0020
0000
,
0000
0000
0000
0030
0000
0000
0110
0000
0000
0000
0010
0000
1000
0000
0001
0000
,
0200
0000
0000
0000
0020
0330
0110
0000
0000
0000
0100
0000
1000
0000
0001
0000
,
0020
0000
0030
0001
0100
1000
0100
0001
,
0200
0000
0000
0302
0000
0100
0100
0200
,
0000
0000
0000
0303
0000
0000
0000
0000
0002
0000
0000
2003
0000
0000
3010
0000
,
0020
0000
0000
0000
0000
0030
0200
0000
0000
0300
0010
0000
1000
0000
0010
0000
,
1000
0000
0000
0001
0000
0000
0100
0000
0000
0000
0010
0000
0000
0000
1000
0100
,
1000
0000
0000
0100
0000
1000
0001
0000
0000
0000
0000
0000
0001
0000
1000
0000
,
0010
0000
0000
0010
0000
0000
0100
0000
0001
0000
0000
0000
1000
0000
0020
0000
,
0100
0000
0100
0000
0100
0000
0100
0000
0130
0000
0100
0001
0100
0001
0100
0000
,
0202
0303
0000
0000
0001
0000
0100
0000
0010
0000
1000
0000
0100
0000
0010
0000
,
0001
0000
0100
0000
0000
0000
0001
0100
0001
0000
0100
0000
0010
0000
1000
0000
,
0020
0000
0130
0001
0010
0100
1000
0020
,
0000
0230
0000
0302
0000
0013
0001
0100
,
0020
0000
0000
2030
0000
0000
3002
0000
0000
0000
0100
0003
0001
0000
1000
0000
,
0010
0000
0000
0010
0000
0000
1000
0000
0100
0000
0000
0100
0000
0000
1000
0000
,
0002
0000
0000
0203
0000
0000
0020
0000
0330
0000
0000
0000
0100
0000
0001
0000
,
2000
0000
0000
0000
0000
3000
0020
0000
0000
0130
0010
0000
1000
0000
0001
0000
,
0200
0000
0000
0000
0000
0300
0010
0000
1000
0000
0000
0001
0000
0000
0100
0000
,
0000
0000
0110
0000
0000
0000
0010
1000
0010
0000
1000
0000
0100
0000
0010
0000
,
0002
0000
0003
1000
0001
1000
0010
0200
,
0000
0000
0320
0000
0000
0000
0130
0010
0100
0000
0001
0000
0001
0000
1000
0000
,
0002
0000
0000
0000
0103
0000
0020
0000
0000
0000
2030
0000
0000
3000
0100
0000
,
0020
0000
0000
0032
0000
0000
0203
0000
0000
0300
0010
0000
1000
0000
0020
0000
,
0000
0030
0100
0000
0001
0000
0200
0000
0300
0000
0020
0000
0000
0030
1000
0000
,
0020
0000
0000
2030
0000
0000
3002
0000
0000
0000
0203
0000
0000
0000
0310
0000
,
0010
0000
1000
0000
0001
0000
0100
0000
0010
0000
1000
0000
0010
0000
0000
0220
,
0000
0000
0000
0000
,
0000
0000
0000
0000
0000
0000
0000
0330
0000
0000
0000
0000
0000
0000
0000
0000
;

//---------------dance-single - ----------------
#NOTES:
     dance-single:
     :
     Challenge:
     10:
     0.767,0.676,0.400,0.812,0.545,374.000,36.000,73.000,0.000,0.000:
0000
0000
0000
1002
,
1003
0000
0010
0001
1000
0000
0100
0000
0010
1000
0100
0000
0010
0000
1000
0001
,
1000
0000
0010
0001
0100
0000
1000
0010
0001
0100
0010
0100
1000
0100
0010
0100
,
2000
0000
0001
0001
3000
0100
0100
0001
0010
0100
1000
0010
0001
0000
0210
0000
,
0001
0000
1000
1300
0000
0010
0110
0000
0010
0000
0100
0000
1000
0000
0001
0000
,
0010
0000
0100
0100
0000
0010
0120
0000
1000
0000
0130
0000
0001
0000
0001
0000
,
1000
0000
0100
1000
0000
0001
0010
0001
0100
0000
0010
0100
1000
0100
0001
0100
,
0010
0000
0010
0010
0000
0001
0001
0010
0000
0100
0100
1000
0100
0010
0100
0010
,
0001
0000
0100
0001
0100
0000
1000
0000
0010
0100
1000
0010
0001
1000
0200
0000
,
0310
0000
0000
1000
0000
0000
1200
0001
0010
0001
0310
0000
1000
0000
0010
0100
,
0010
0000
0100
0010
0000
0010
1000
0000
0100
0000
0010
0100
0000
0100
0001
0000
,
0120
0000
0100
0000
0200
0330
0010
0000
0100
0000
0001
0000
1000
0000
0120
0000
,
0100
0000
0000
0130
0000
0000
0110
0000
0100
0000
0010
0000
0001
0000
1000
0000
,
0210
0000
0010
0000
0020
0330
0110
0000
0010
0000
0100
0000
1000
0000
0001
0000
,
0120
0000
0100
0000
0130
0000
0001
0000
0100
0010
0001
0010
0100
0010
0001
0010
,
0200
0000
1000
0000
1000
0000
0302
0000
0100
0000
0020
0030
2000
3000
0200
0300
,
0010
0000
0000
1003
0000
0000
0100
0000
0002
0000
0100
2003
0000
0000
3010
0100
,
0020
0000
0000
0000
0100
0000
0000
0000
0100
0000
0030
0000
0210
0000
0000
0000
0000
0000
0300
0000
0021
0000
0000
0000
2000
3030
0000
0000
0010
0000
0000
0000
,
1000
0000
0100
0001
0010
0000
0100
1000
0001
0100
0010
0000
0100
0000
1000
0100
,
1000
0000
0010
0100
0010
0001
2000
0000
3000
0000
0200
0000
0301
0000
1000
0000
,
0010
0000
0100
1000
0000
1000
0010
0000
0001
0000
0100
0000
1000
0000
0020
0000
,
0100
0000
0100
0000
0100
0000
0100
0000
0130
0000
0001
1000
0001
1000
0001
0000
,
0220
0330
0000
0000
0101
0000
0100
0000
0010
0000
1000
0001
1100
0000
0010
0000
,
0001
0000
0100
0000
0101
0000
0001
0100
0001
0010
0100
1000
0110
0000
1000
0100
,
0021
0000
0000
0000
1000
0000
0000
0000
0200
0330
0000
0000
1000
0000
0000
0000
0100
0000
0000
0000
0010
0000
1000
0000
0011
0000
0000
0000
0020
0000
0000
0000
,
1000
0000
0000
0000
0230
0000
0000
0000
0002
0003
0000
0000
2300
0000
0000
0000
0100
0000
0000
0000
3010
0000
0100
0000
0011
0000
0000
0000
0100
0000
0001
0000
,
1020
0000
0100
2030
0000
0010
3002
0000
0010
1000
0100
0003
1001
0000
1000
0000
,
0010
0000
0100
0010
1001
0000
1000
0000
0100
0000
0001
0100
0011
0000
1000
0000
,
0002
0000
0000
0000
0010
0000
0203
0000
2000
3000
0000
0000
0020
0000
0000
0000
0330
0000
0000
0000
1000
0000
0100
0000
0010
0000
0001
0000
0010
0000
0100
0000
,
2000
0000
0000
0000
0100
0000
0000
0000
0002
0003
3000
0000
0020
0000
0000
0000
0001
0000
0130
0000
0010
0000
0000
0000
1000
0000
0010
0000
0001
0000
0010
0000
,
0200
0000
0000
0000
1000
0000
0000
0000
0002
0003
0300
0000
0010
0000
0000
0000
1000
0000
0000
0000
0010
0000
0001
0000
1100
0000
0000
0000
0100
0000
0000
0000
,
0010
0000
0110
0000
0011
0000
0100
1000
0100
0010
0001
0010
0100
1000
0100
0010
,
0002
0000
0000
0000
0100
0000
0000
0000
2000
3003
0000
0000
1000
0000
0000
0000
0001
0000
0000
0000
1000
0000
0000
0000
0011
0000
0000
0000
0200
0000
0000
0000
,
0001
0000
0000
0000
0320
0000
0000
0000
2000
3000
0000
0000
0130
0000
0010
0000
0100
0000
0001
0000
1000
0000
0001
0000
0110
0000
1000
0000
0001
0000
1000
0000
,
0012
0000
0000
0000
1000
0000
0000
0000
0200
0303
0000
0000
0020
0000
0000
0000
0100
0000
0000
0000
2030
0000
0000
0000
0002
0003
3000
0000
0100
0000
0001
0000
,
0020
0000
0000
0000
0000
0000
0032
0000
2000
3000
0000
0000
0203
0000
0000
0000
0000
0000
0300
0000
0010
0000
0000
0000
1100
0000
0000
0000
0220
0000
0000
0000
,
0000
0330
1100
0000
0011
0000
0220
0000
0330
0000
0020
0000
1000
0030
0010
0100
,
0020
0000
0001
2030
0000
0000
3002
0000
0000
0000
0203
0000
0000
0000
0310
0000
,
0020
0000
1000
0000
0032
0000
0100
0000
0010
0000
1000
0000
0010
0000
0000
0200
,
0000
0300
0000
2000
0000
0000
0000
0000
0000
0000
0000
0000
0000
0000
0000
0000
,
0000
0000
3003
0000
;

//---------------dance-single - ----------------
#NOTES:
     dance-single:
     :
     Medium:
     5:
     0.311,0.315,0.245,0.167,0.044,159.000,22.000,15.000,0.000,0.000:
0000
0000
0000
0000
,
1000
0010
0100
0001
,
1000
0001
0001
1000
,
2000
3001
0100
0010
,
0200
0310
0010
0100
,
0001
0100
0010
0010
,
1000
1000
0001
0001
,
0100
0100
0010
1000
,
0010
0010
0100
0002
,
1003
1000
0010
0100
,
0001
0001
1000
1000
,
0010
1010
1000
0010
,
0002
0013
1000
0001
,
0100
0101
0001
0100
,
2000
3100
0001
1000
,
0002
0000
0000
2003
0000
0000
3010
0000
,
0220
0000
0000
0330
0010
0000
0100
0000
,
0110
0000
0000
1001
0000
0002
0000
0003
,
1000
0001
0100
0010
,
0110
0000
0000
1001
0000
2000
0000
3000
,
0010
0100
0001
1000
,
0001
1000
0001
1000
0001
1000
0001
1000
,
1001
0011
0010
0100
,
1000
1100
0100
0010
,
0001
1001
1000
0001
,
0100
0101
0001
1000
,
0010
0000
0000
1000
0000
0000
0100
0000
0000
0000
0000
0000
1100
0000
0000
0000
,
0100
0000
0000
0010
0000
0000
0001
0000
1000
0000
0000
0001
0000
0000
0100
0000
,
0010
0000
0000
0110
0000
0000
0000
0000
0000
0000
0000
0000
0100
0000
0000
0000
,
0202
0000
0303
1100
0000
0000
0001
0000
,
1001
1100
0100
0010
,
0001
0011
0010
0100
,
1100
1001
1000
0001
,
0100
0101
0001
0100
,
0010
0000
1000
0001
0000
1000
0000
0001
,
1000
0000
0000
0010
0000
0000
0100
0000
0000
0000
0010
0000
0100
0000
0010
0000
,
0000
0010
0100
0010
0000
0100
0000
0001
,
1000
0000
0000
0010
0000
0000
0100
0000
0000
0000
0010
0000
0000
0000
0010
0000
,
1000
0000
0000
0002
0000
0000
0010
0000
0000
0000
0100
0000
0100
0000
0000
2000
,
0000
0000
0000
0000
,
0000
0000
0000
0000
0000
0000
0000
3003
0000
0000
0000
0000
0000
0000
0000
0000
;

//---------------dance-single - ----------------
#NOTES:
     dance-single:
     :
     Easy:
     2:
     0.118,0.180,0.011,0.067,0.000,67.000,1.000,6.000,0.000,0.000:
0000
0000
0000
0000
,
1000
0000
0000
0000
,
0001
0000
0000
0000
,
1000
0000
0000
0000
,
0010
0000
0000
0000
,
0100
0000
0000
0000
,
0010
0000
0000
0000
,
1000
0000
0000
0000
,
1000
0000
0000
0000
,
0001
0000
0000
0000
,
0001
0000
0000
0000
,
0100
0000
0000
0000
,
0100
0000
0000
0000
,
0010
0000
0000
0000
,
0010
0000
0000
0000
,
1000
0000
0000
0000
,
2000
3000
0000
0000
0000
0000
0000
0000
,
0002
0000
0000
0100
0003
0000
0000
0000
,
2000
0000
0000
0000
0000
0000
0000
3000
,
0020
0000
0000
0000
0000
0130
0000
0000
,
0000
0000
0000
0000
,
1000
1000
1000
1000
,
1001
0100
0000
0001
,
0001
0100
0000
1000
,
0100
0100
0000
0010
,
0010
0001
0000
0000
,
0010
0100
0000
0000
,
0100
0010
0000
0000
,
1000
0001
0000
0000
,
0100
0000
0000
0100
0000
0000
0000
0000
,
1000
1000
0000
0010
,
0001
0010
0000
0100
,
1000
0100
0000
0010
,
1000
0001
0000
0100
,
0001
1000
0000
0010
,
0100
0001
0000
1000
,
0000
1000
0000
0010
,
0000
0000
0000
0100
0000
0000
0000
0000
,
0002
0000
0000
0000
,
0200
0000
0000
0000
,
0000
0000
0000
0000
0000
0000
0000
0000
0000
0000
0000
0000
0000
0000
0000
0000
0000
0000
0000
0000
0000
0000
0000
0000
0000
0000
0000
0000
0000
0000
0000
0000
0000
0000
0000
0000
0000
0000
0000
0000
0000
0000
0000
0000
0000
0000
0000
0000
0000
0000
0000
0000
0000
0000
0000
0000
0000
0000
0000
0000
0000
0000
0000
0000
0000
0000
0000
0000
0000
0000
0000
0000
0000
0000
0000
0000
0000
0000
0000
0000
0000
0000
0000
0000
0000
0303
0000
0000
0000
0000
0000
0000
0000
0000
0000
0000
0000
0000
0000
0000
0000
0000
0000
0000
0000
0000
0000
0000
0000
0000
0000
0000
0000
0000
0000
0000
0000
0000
0000
0000
0000
0000
0000
0000
0000
0000
0000
0000
0000
0000
0000
0000
0000
0000
0000
0000
0000
0000
0000
0000
0000
0000
0000
0000
0000
0000
0000
0000
0000
0000
0000
0000
0000
0000
0000
0000
0000
0000
0000
0000
0000
0000
0000
0000
0000
0000
0000
0000
0000
0000
0000
0000
0000
0000
0000
0000
0000
0000
0000
0000
0000
0000
0000
0000
0000
0000
0000
0000
0000
0000
0000
0000
;
